Boring Machines Disturbs Sleep: Last Days Mix

Boring Machines Disturbs Sleep

Sunday, November 26, 2006

Last Days Mix

Last Days has just informed me that he has posted a "Quiet Times Mix" up for your downloading pleasure. This mix is inspired by "warming yourself up during these cold dark nights and frosty mornings". There are some excellent inclusions in the mix tracklisitng including Type Records artists Helios and Deaf Center, while older tracks from the likes of The Dead Texan, Efterklang and Hilmar Orn Hilmarsson make up some of the end tracks in this mix.
There are rumours that these mixes from Last Days may become a monthly occurance. Lets hope so!, go here for the complete tracklisitng and downloading information . For those of you unaware of Last Days' work, I interviewed him here and reviewed his record here too.

Labels: ,

3 Comments:

At 29 November, 2006, Anonymous Kiril said...

Thanks for sharing this great music! I made a cuesheet according to the tracklist information to make the mix more manageable. Here it is:

PERFORMER "Last Days"
TITLE "Quiet Times Mix"
FILE "last days - quiet times.mp3" MP3
TRACK 01 AUDIO
TITLE "Lamp Mien"
PERFORMER "Deaf Center"
INDEX 01 00:00:00
REM ALBUM ARTIST Last Days
REM DATE 2006
REM GENRE Lo-Fi
TRACK 02 AUDIO
TITLE "Dragonfly Across an Ancient Sky"
PERFORMER "Helios"
INDEX 01 03:52:00
REM ALBUM ARTIST Last Days
REM DATE 2006
REM GENRE Lo-Fi
TRACK 03 AUDIO
TITLE "Don't You Tell a Word"
PERFORMER "Ass"
INDEX 01 09:22:00
REM ALBUM ARTIST Last Days
REM DATE 2006
REM GENRE Lo-Fi
TRACK 04 AUDIO
TITLE "I'm Sad Feeling!"
PERFORMER "The Remote Viewer"
INDEX 01 13:46:00
REM ALBUM ARTIST Last Days
REM DATE 2006
REM GENRE Lo-Fi
TRACK 05 AUDIO
TITLE "Theme"
PERFORMER "Kazumasa Hashimoto"
INDEX 01 18:36:00
REM ALBUM ARTIST Last Days
REM DATE 2006
TRACK 06 AUDIO
TITLE "J'ai Plus de Peine Pour un Chat Écrasé"
PERFORMER "Audiopixel"
INDEX 01 20:10:00
REM ALBUM ARTIST Last Days
REM DATE 2006
REM GENRE Lo-Fi
TRACK 07 AUDIO
TITLE "Chair Father"
PERFORMER "Yasushi Yoshida"
INDEX 01 20:31:00
REM ALBUM ARTIST Last Days
REM DATE 2006
REM GENRE Lo-Fi
TRACK 08 AUDIO
TITLE "Soldiers Kill Their Sisters"
PERFORMER "Songs of Green Pheasant"
INDEX 01 26:44:00
REM ALBUM ARTIST Last Days
REM DATE 2006
REM GENRE Lo-Fi
TRACK 09 AUDIO
TITLE "Redford"
PERFORMER "Sufjan Stevens"
INDEX 01 29:26:00
REM ALBUM ARTIST Last Days
REM DATE 2006
REM GENRE Lo-Fi
TRACK 10 AUDIO
TITLE "Blown Glass Typewriter"
PERFORMER "The Dead Texan"
INDEX 01 31:19:00
REM ALBUM ARTIST Last Days
REM DATE 2006
REM GENRE Lo-Fi
TRACK 11 AUDIO
TITLE "The Struggle"
PERFORMER "The Dead Texan"
INDEX 01 36:32:00
REM ALBUM ARTIST Last Days
REM DATE 2006
REM GENRE Lo-Fi
TRACK 12 AUDIO
TITLE "Watts Tower"
PERFORMER "Porn Sword Tobacco"
INDEX 01 41:35:00
REM ALBUM ARTIST Last Days
REM DATE 2006
REM GENRE Lo-Fi
TRACK 13 AUDIO
TITLE "Collecting Shields"
PERFORMER "Efterklang"
INDEX 01 44:32:00
REM ALBUM ARTIST Last Days
REM DATE 2006
REM GENRE Lo-Fi
TRACK 14 AUDIO
TITLE "On The Road"
PERFORMER "Hilmar Orn Hilmarsson"
INDEX 01 50:20:00
REM ALBUM ARTIST Last Days
REM DATE 2006
REM GENRE Lo-Fi

 
At 29 November, 2006, Anonymous kiril said...

You must change the third line according to the filename on your computer. And... sorry for that lo-fi genre definition. It's stupid, I know.

 
At 03 December, 2006, Anonymous Anonymous said...

Hey everyone, I'm new! ..... just made my profile. Everyone says I need to share

something so I Just thought I'd let you know a place where I made an extra $800 last month!
Click here to find out more!
Be sure to check out my new page. :)

 

Post a Comment

Links to this post:

Create a Link

<< Home

Free Website Counter
Counter